【演唱会】初音未来 HATSUNE MIKU EXPO 2016 Japan Tour HD【1080P】中日特效字幕版 下载

5383 点击
30 评论
1 点赞
1 收藏
0 分享
欢迎关注微博:weibo.com/OmoineMie

 

【说明】

字幕来源于Vmoe字幕组,经过二次调整优化再压制。

先前那个存在音画不同步和最后几分钟画面卡住问题,已修复,请重新下载,小容量版本已上传,可以下载了。

【info】
Complete name: HATSUNE MIKU EXPO 2016 Japan Tour [HD][1080P][Chs&Jpn_Effect Subtitles].mp4

Video
ID: 1
Format: AVC
Format/Info: Advanced Video Codec
Format profile: High@L5.1
Format settings, CABAC: Yes
Format settings, ReFrames: 4 frames
Codec ID: avc1
Codec ID/Info: Advanced Video Coding
Duration: 1 h 56 min
Bit rate: 16.2 Mb/s
Width : 1 920 pixels
Height: 1 080 pixels
Display aspect ratio: 16:9
Frame rate mode: Variable
Frame rate: 29.970 (29970/1000) FPS
Minimum frame rate: 24.975 FPS
Maximum frame rate: 29.970 FPS
Color space: YUV
Chroma subsampling: 4:2:0
Bit depth: 8 bits
Scan type: Progressive
Bits/(Pixel*Frame): 0.260
Stream size: 13.2 GiB (98%)
Writing library: x264 core 146 r2538kMod 121396c
Menus : 3

Audio
ID : 2
Format : AAC
Format/Info : Advanced Audio Codec
Format profile : LC
Codec ID : 40
Duration : 1 h 56 min
Bit rate mode : Constant
Bit rate : 320 kb/s
Channel(s) : 2 channels
Channel positions : Front: L R
Sampling rate : 48.0 kHz
Frame rate : 46.875 FPS (1024 spf)
Compression mode : Lossy
Stream size : 267 MiB (2%)
Default : Yes
Alternate group : 1
Menus : 3

 

【Menu】歌单


00:00:00: 00.Start
00:06:41: 01. ワールドイズマイン / ryo(supercell)
00:11:08: 02. 初音ミクの消失 / CosMo
00:13:51: 03. 裏表ラバーズ / wowaka
00:17:45: 04. アンハッピーリフレイン / wowaka
00:21:32: 05. ワールズエンド・ダンスホール / wowaka
00:25:06: 06. magnet / minato-P
00:28:05: 07. Weekender Girl / kz(livetune)
00:31:41: 08. ありふれたせかいせいふく / Pinocchio-P
00:35:03: 09. 愛言葉 /DECO*27
00:38:18: 10. Glass Wall / GuitarHeroPianoZero
00:42:50: 11. スノーマン / halyosy
00:46:53: 12. Change Me / shu-tP
00:50:26: 13. 東京テディベア / Neru
00:53:40: 14. 右肩の蝶 / Nori-P
00:56:37: 15. リモコン / Jesus-P(Wonderful☆Opportunity!)
01:01:50: 16. 恋は戦争 / ryo(supercell)
01:04:24: 17. Last Night, Good Night (Re:Dialed) / livetune
01:10:49: 18. Ten Thousand Stars / Circus-P
01:14:42: 19. ルカルカ★ナイトフィーバー / samfree
01:18:06: ---Band Member Introduction---
01:19:46: 20. 秘密警察 / Buriru-P
01:22:47: 21. 初音ミクの激唱 / CosMo
01:26:03: 22. Tell Your World / kz(livetune)
01:30:20: 23. Blue Star / Hachioji-P
01:35:20: ---ENCORE 1---
01:37:53: 24. 積乱雲グラフィティ / ryo(supercell)
01:41:28: 25. 39(サンキュー) / sasakure.UK & DECO*27
01:45:16: ---ENCORE 2---
01:46:08: 26. 星のカケラ / Eiji Hisawara
01:52:58: END. Blue Star / Hachioji-P

 

HATSUNE MIKU EXPO 2016 Japan Tour [HD][1080P][Chs&Jpn_Effect Subtitles].mp4_20161217_104727.002


密码

提取密码
提取密码2

下载

点击下载会自动复制提取密码到剪切板


在线播放

预览

下载完该资源后, 各位可以在评论区留下当前资源的秒传链接, 这样在分享失效后, 其他人也能获取到资源, 互相帮助, 减轻投稿者补档负担, 无需账号, 只需要在电脑上计算出资源的秒传识别码 查看如何创建秒传链接

30 评论

请先 登录 才能发表评论
描述下载在线播放预览图评论