手机端无法投稿和评分, 论坛发帖不会加积分了~
upuppo

【演唱会】雪初音 SNOW MIKU LIVE! 2019

> 演唱会 >
2729 点击 42 评论 249 总评分
初音社神秘的幕后主使者
【演唱会】雪初音 SNOW MIKU LIVE! 2019

描述

来源: © B站 雪未来2019演唱会

B站在线观看地址 点我 PS:需要大会员

 

初音未来在北海道札幌举行的雪未来十年纪念演唱会

歌单

1. テオ
2. 愛の詩
3. ローリンガール – (Rolling Girl )
4. こちら、幸福安心委員会です。
5. ステラ / 骨盤P
6. スイートマジック
7. Fire◎Flower
8. 劣等上等
9. ピアノ×フォルテ×スキャンダル
10. スノーマン
11. Yellow
12. アンノウン・マザーグース
13. なりすましゲンガー
14. Birthday
15. Hello, Worker
16. Leia
17. それがあなたの幸せとしても
18. Nyanyanyanyanyanyanya!
19. Satisfaction
20. ワールドイズマイン
21. 好き! 雪! 本気マジック
22. Snow Fairy Story
23. 四角い地球を丸くする
24. 雪がとける前に
25. スターナイトスノウ
26. アイ

 

视频文件信息

Format : MPEG-4
Format profile : Base Media
Codec ID : isom (isom/iso2/avc1/mp41)
File size : 4.25 GiB
Duration : 1 h 53 min
Overall bit rate : 5 334 kb/s
Writing application : Lavf57.52.100

Video
ID : 1
Format : AVC
Format/Info : Advanced Video Codec
Format profile : High@L4.2
Format settings, CABAC : Yes
Format settings, ReFrames : 4 frames
Codec ID : avc1
Codec ID/Info : Advanced Video Coding
Duration : 1 h 53 min
Bit rate : 5 000 kb/s
Width : 1 920 pixels
Height : 1 080 pixels
Display aspect ratio : 16:9
Frame rate mode : Constant
Frame rate : 50.000 FPS
Color space : YUV
Chroma subsampling : 4:2:0
Bit depth : 8 bits
Scan type : Progressive
Bits/(Pixel*Frame) : 0.048
Stream size : 3.98 GiB (94%)

Audio
ID : 2
Format : AAC
Format/Info : Advanced Audio Codec
Format profile : LC
Codec ID : 40
Duration : 1 h 53 min
Bit rate mode : Constant
Bit rate : 321 kb/s
Channel(s) : 2 channels
Channel positions : Front: L R
Sampling rate : 48.0 kHz
Frame rate : 46.875 FPS (1024 spf)
Compression mode : Lossy
Stream size : 262 MiB (6%)
Default : Yes
Alternate group : 1

吐槽: 全损画质如何拯救

预览

【演唱会】雪初音 SNOW MIKU LIVE! 2019

【演唱会】雪初音 SNOW MIKU LIVE! 2019

【演唱会】雪初音 SNOW MIKU LIVE! 2019

【演唱会】雪初音 SNOW MIKU LIVE! 2019

【演唱会】雪初音 SNOW MIKU LIVE! 2019

【演唱会】雪初音 SNOW MIKU LIVE! 2019

【演唱会】雪初音 SNOW MIKU LIVE! 2019

下载

访问密码1:

下载点1号

点评: 4.98分 / 50人评分

50 votes, average: 4.98 out of 550 votes, average: 4.98 out of 550 votes, average: 4.98 out of 550 votes, average: 4.98 out of 550 votes, average: 4.98 out of 5

打赏积分给作者 一键分享

下载地址失效了的话 请点击我 当前失效次数: 16


只有 登录/注册 后才能发表评论
42 条精彩评论。
  1. 用户头像
    吹爆!感谢分享!
    2019-03-30 14:55 Safari 537.36Android 8.0.0
  2. 用户头像
    感谢分享
    2019-03-25 20:41 Google Chrome 70.0.3538.110Windows 10 x64
  3. 用户头像
    kh940329 Lv3 见习斗士
    感谢分享
    2019-03-24 13:27 Firefox 66.0Windows 10 x64
  4. 用户头像
    Zjh@041543 Lv1 见习斗士
    真棒
    2019-03-16 21:13 Google Chrome 57.0.2987.108Android 8.1.0
  5. 用户头像
    cxqmt Lv6 青铜斗士 魔法学徒
    感谢分享
    2019-03-15 12:29 Google Chrome 58.0.3029.110Windows 10 x64
  6. 用户头像
    死道友不死贫道 Lv2 见习斗士
    感谢分享
    2019-02-23 21:54 Google Chrome 63.0.3239.132Windows 7 x64
  7. 用户头像
    huang yanjie Lv1 见习斗士 魔法学徒
    赞赞赞
    2019-02-18 23:37 Google Chrome 63.0.3239.26Windows 10 x64
  8. 用户头像
    小晟 Lv2 见习斗士
    赞赞赞
    2019-02-18 22:40 Safari 605.1.15Mac OSX 10_14_1
  9. 用户头像
    老司机 Lv7 新手司机 青铜斗士 见习魔法师
    感谢分享(`・ω・´)
    2019-02-18 15:02 Google Chrome 68.0.3440.106Windows 7 x64
  10. 用户头像
    梦若旒歆 Lv1 见习斗士
    直播时候刚好是回来上班那天,还以为错过,没想到还能看呢
    2019-02-18 05:13 Google Chrome 58.0.3029.110Windows 8.1 x64
  11. 用户头像
    wingunreal Lv1 见习斗士
    赛高!!!
    2019-02-17 22:32 Google Chrome 58.0.3029.110Windows 10 x64
  12. 用户头像
    孽血妖魂 Lv8 青铜斗士
    6666啊
    2019-02-16 17:39 Google Chrome 63.0.3239.132Windows XP
1 2